  0
SECTION
  2
HEADER
  9
$ACADVER
  1
AC1014
  9
$ACADMAINTVER
 70
     9
  9
$DWGCODEPAGE
  3
ANSI_1252
  9
$INSBASE
 10
0.0
 20
0.0
 30
0.0
  9
$EXTMIN
 10
2.046616310371015
 20
3.994227427285853
 30
0.0
  9
$EXTMAX
 10
9.856619117819754
 20
7.115475008431165
 30
0.0
  9
$LIMMIN
 10
0.0
 20
0.0
  9
$LIMMAX
 10
12.0
 20
9.0
  9
$ORTHOMODE
 70
     0
  9
$REGENMODE
 70
     1
  9
$FILLMODE
 70
     1
  9
$QTEXTMODE
 70
     0
  9
$MIRRTEXT
 70
     1
  9
$DRAGMODE
 70
     2
  9
$LTSCALE
 40
1.0
  9
$OSMODE
 70
     0
  9
$ATTMODE
 70
     1
  9
$TEXTSIZE
 40
0.2
  9
$TRACEWID
 40
0.05
  9
$TEXTSTYLE
  7
STANDARD
  9
$CLAYER
  8
0
  9
$CELTYPE
  6
BYLAYER
  9
$CECOLOR
 62
   256
  9
$CELTSCALE
 40
1.0
  9
$DELOBJ
 70
     1
  9
$DISPSILH
 70
     0
  9
$DIMSCALE
 40
1.0
  9
$DIMASZ
 40
0.18
  9
$DIMEXO
 40
0.0625
  9
$DIMDLI
 40
0.38
  9
$DIMRND
 40
0.0
  9
$DIMDLE
 40
0.0
  9
$DIMEXE
 40
0.18
  9
$DIMTP
 40
0.0
  9
$DIMTM
 40
0.0
  9
$DIMTXT
 40
0.18
  9
$DIMCEN
 40
0.09
  9
$DIMTSZ
 40
0.0
  9
$DIMTOL
 70
     0
  9
$DIMLIM
 70
     0
  9
$DIMTIH
 70
     1
  9
$DIMTOH
 70
     1
  9
$DIMSE1
 70
     0
  9
$DIMSE2
 70
     0
  9
$DIMTAD
 70
     0
  9
$DIMZIN
 70
     0
  9
$DIMBLK
  1

  9
$DIMASO
 70
     1
  9
$DIMSHO
 70
     1
  9
$DIMPOST
  1

  9
$DIMAPOST
  1

  9
$DIMALT
 70
     0
  9
$DIMALTD
 70
     2
  9
$DIMALTF
 40
25.4
  9
$DIMLFAC
 40
1.0
  9
$DIMTOFL
 70
     0
  9
$DIMTVP
 40
0.0
  9
$DIMTIX
 70
     0
  9
$DIMSOXD
 70
     0
  9
$DIMSAH
 70
     0
  9
$DIMBLK1
  1

  9
$DIMBLK2
  1

  9
$DIMSTYLE
  2
STANDARD
  9
$DIMCLRD
 70
     0
  9
$DIMCLRE
 70
     0
  9
$DIMCLRT
 70
     0
  9
$DIMTFAC
 40
1.0
  9
$DIMGAP
 40
0.09
  9
$DIMJUST
 70
     0
  9
$DIMSD1
 70
     0
  9
$DIMSD2
 70
     0
  9
$DIMTOLJ
 70
     1
  9
$DIMTZIN
 70
     0
  9
$DIMALTZ
 70
     0
  9
$DIMALTTZ
 70
     0
  9
$DIMFIT
 70
     3
  9
$DIMUPT
 70
     0
  9
$DIMUNIT
 70
     2
  9
$DIMDEC
 70
     2
  9
$DIMTDEC
 70
     2
  9
$DIMALTU
 70
     2
  9
$DIMALTTD
 70
     2
  9
$DIMTXSTY
  7
STANDARD
  9
$DIMAUNIT
 70
     0
  9
$LUNITS
 70
     2
  9
$LUPREC
 70
     4
  9
$SKETCHINC
 40
0.1
  9
$FILLETRAD
 40
0.5
  9
$AUNITS
 70
     0
  9
$AUPREC
 70
     0
  9
$MENU
  1
.
  9
$ELEVATION
 40
0.0
  9
$PELEVATION
 40
0.0
  9
$THICKNESS
 40
0.0
  9
$LIMCHECK
 70
     0
  9
$BLIPMODE
 70
     0
  9
$CHAMFERA
 40
0.5
  9
$CHAMFERB
 40
0.5
  9
$CHAMFERC
 40
1.0
  9
$CHAMFERD
 40
0.0
  9
$SKPOLY
 70
     0
  9
$TDCREATE
 40
2452178.465636342
  9
$TDUPDATE
 40
2452646.422526967
  9
$TDINDWG
 40
0.0017747685
  9
$TDUSRTIMER
 40
0.0017747685
  9
$USRTIMER
 70
     1
  9
$ANGBASE
 50
0.0
  9
$ANGDIR
 70
     0
  9
$PDMODE
 70
     0
  9
$PDSIZE
 40
0.0
  9
$PLINEWID
 40
0.0
  9
$COORDS
 70
     1
  9
$SPLFRAME
 70
     0
  9
$SPLINETYPE
 70
     6
  9
$SPLINESEGS
 70
     8
  9
$ATTDIA
 70
     1
  9
$ATTREQ
 70
     1
  9
$HANDLING
 70
-16383
  9
$HANDSEED
  5
29A
  9
$SURFTAB1
 70
     6
  9
$SURFTAB2
 70
     6
  9
$SURFTYPE
 70
     6
  9
$SURFU
 70
     6
  9
$SURFV
 70
     6
  9
$UCSNAME
  2

  9
$UCSORG
 10
0.0
 20
0.0
 30
0.0
  9
$UCSXDIR
 10
1.0
 20
0.0
 30
0.0
  9
$UCSYDIR
 10
0.0
 20
1.0
 30
0.0
  9
$PUCSNAME
  2

  9
$PUCSORG
 10
0.0
 20
0.0
 30
0.0
  9
$PUCSXDIR
 10
1.0
 20
0.0
 30
0.0
  9
$PUCSYDIR
 10
0.0
 20
1.0
 30
0.0
  9
$USERI1
 70
     0
  9
$USERI2
 70
     0
  9
$USERI3
 70
     0
  9
$USERI4
 70
     0
  9
$USERI5
 70
     0
  9
$USERR1
 40
0.0
  9
$USERR2
 40
0.0
  9
$USERR3
 40
0.0
  9
$USERR4
 40
0.0
  9
$USERR5
 40
0.0
  9
$WORLDVIEW
 70
     1
  9
$SHADEDGE
 70
     3
  9
$SHADEDIF
 70
    70
  9
$TILEMODE
 70
     1
  9
$MAXACTVP
 70
    64
  9
$PINSBASE
 10
0.0
 20
0.0
 30
0.0
  9
$PLIMCHECK
 70
     0
  9
$PEXTMIN
 10
1.000000000000000E+20
 20
1.000000000000000E+20
 30
1.000000000000000E+20
  9
$PEXTMAX
 10
-1.000000000000000E+20
 20
-1.000000000000000E+20
 30
-1.000000000000000E+20
  9
$PLIMMIN
 10
0.0
 20
0.0
  9
$PLIMMAX
 10
12.0
 20
9.0
  9
$UNITMODE
 70
     0
  9
$VISRETAIN
 70
     1
  9
$PLINEGEN
 70
     0
  9
$PSLTSCALE
 70
     1
  9
$TREEDEPTH
 70
  3020
  9
$PICKSTYLE
 70
     1
  9
$CMLSTYLE
  2
STANDARD
  9
$CMLJUST
 70
     0
  9
$CMLSCALE
 40
1.0
  9
$PROXYGRAPHICS
 70
     1
  9
$MEASUREMENT
 70
     0
  0
ENDSEC
  0
SECTION
  2
CLASSES
  0
CLASS
  1
ACDBDICTIONARYWDFLT
  2
AcDbDictionaryWithDefault
  3
AutoCAD 2000
 90
        0
280
     0
281
     0
  0
CLASS
  1
ACDBPLACEHOLDER
  2
AcDbPlaceHolder
  3
AutoCAD 2000
 90
        0
280
     0
281
     0
  0
CLASS
  1
LAYOUT
  2
AcDbLayout
  3
AutoCAD 2000
 90
        0
280
     0
281
     0
  0
CLASS
  1
LONG_TRANSACTION
  2
AcDbLongTransaction
  3
AutoCAD 2000
 90
        0
280
     0
281
     0
  0
CLASS
  1
LWPOLYLINE
  2
AcDbPolyline
  3
AutoCAD 2000
 90
        0
280
     0
281
     1
  0
CLASS
  1
HATCH
  2
AcDbHatch
  3
AutoCAD 2000
 90
        0
280
     0
281
     1
  0
CLASS
  1
XRECORD
  2
AcDbXrecord
  3
AutoCAD 2000
 90
        0
280
     0
281
     0
  0
ENDSEC
  0
SECTION
  2
TABLES
  0
TABLE
  2
VPORT
  5
8
330
0
100
AcDbSymbolTable
 70
     4
  0
VPORT
  5
273
330
8
100
AcDbSymbolTableRecord
100
AcDbViewportTableRecord
  2
*ACTIVE
 70
     0
 10
0.0
 20
0.0
 11
1.0
 21
1.0
 12
6.581321473842802
 22
5.283088231257247
 13
0.0
 23
0.0
 14
0.5
 24
0.5
 15
0.5
 25
0.5
 16
0.0
 26
0.0
 36
1.0
 17
0.0
 27
0.0
 37
0.0
 40
8.99999999580908
 41
1.462515883100381
 42
50.0
 43
0.0
 44
0.0
 50
0.0
 51
0.0
 71
     0
 72
   100
 73
     1
 74
     3
 75
     0
 76
     0
 77
     0
 78
     0
  0
ENDTAB
  0
TABLE
  2
LTYPE
  5
5
330
0
100
AcDbSymbolTable
 70
     2
  0
LTYPE
  5
14
330
5
100
AcDbSymbolTableRecord
100
AcDbLinetypeTableRecord
  2
BYBLOCK
 70
     0
  3

 72
    65
 73
     0
 40
0.0
  0
LTYPE
  5
15
330
5
100
AcDbSymbolTableRecord
100
AcDbLinetypeTableRecord
  2
BYLAYER
 70
     0
  3

 72
    65
 73
     0
 40
0.0
  0
LTYPE
  5
16
330
5
100
AcDbSymbolTableRecord
100
AcDbLinetypeTableRecord
  2
CONTINUOUS
 70
     0
  3
Solid line
 72
    65
 73
     0
 40
0.0
  0
LTYPE
  5
B5
330
5
100
AcDbSymbolTableRecord
100
AcDbLinetypeTableRecord
  2
CENTER2
 70
     0
  3
Center (.5x) ___ _ ___ _ ___ _ ___ _ ___ _ ___
 72
    65
 73
     4
 40
1.125
 49
0.75
 74
     0
 49
-0.125
 74
     0
 49
0.125
 74
     0
 49
-0.125
 74
     0
  0
ENDTAB
  0
TABLE
  2
LAYER
  5
2
330
0
100
AcDbSymbolTable
 70
     4
  0
LAYER
  5
10
330
2
100
AcDbSymbolTableRecord
100
AcDbLayerTableRecord
  2
0
 70
     0
 62
     7
  6
CONTINUOUS
  0
LAYER
  5
34
330
2
100
AcDbSymbolTableRecord
100
AcDbLayerTableRecord
  2
L
 70
     0
 62
     7
  6
CONTINUOUS
  0
LAYER
  5
45
330
2
100
AcDbSymbolTableRecord
100
AcDbLayerTableRecord
  2
DEFPOINTS
 70
     0
 62
     7
  6
CONTINUOUS
  0
LAYER
  5
88
330
2
100
AcDbSymbolTableRecord
100
AcDbLayerTableRecord
  2
TX
 70
     0
 62
   150
  6
CONTINUOUS
  0
ENDTAB
  0
TABLE
  2
STYLE
  5
3
330
0
100
AcDbSymbolTable
 70
     3
  0
STYLE
  5
11
330
3
100
AcDbSymbolTableRecord
100
AcDbTextStyleTableRecord
  2
STANDARD
 70
     0
 40
0.0
 41
1.0
 50
0.0
 71
     0
 42
0.2
  3
txt
  4

  0
STYLE
  5
35
330
3
100
AcDbSymbolTableRecord
100
AcDbTextStyleTableRecord
  2
REG
 70
     0
 40
0.0
 41
1.0
 50
0.0
 71
     0
 42
0.09375
  3
E:\R13\com\fonts\ARCHITXT.SHX
  4

  0
STYLE
  5
36
330
3
100
AcDbSymbolTableRecord
100
AcDbTextStyleTableRecord
  2
DIMTXT
 70
     0
 40
0.0
 41
1.0
 50
0.0
 71
     0
 42
1.125
  3
archt.shx
  4

  0
ENDTAB
  0
TABLE
  2
VIEW
  5
6
330
0
100
AcDbSymbolTable
 70
     0
  0
ENDTAB
  0
TABLE
  2
UCS
  5
7
330
0
100
AcDbSymbolTable
 70
     0
  0
ENDTAB
  0
TABLE
  2
APPID
  5
9
330
0
100
AcDbSymbolTable
 70
     1
  0
APPID
  5
12
330
9
100
AcDbSymbolTableRecord
100
AcDbRegAppTableRecord
  2
ACAD
 70
     0
  0
ENDTAB
  0
TABLE
  2
DIMSTYLE
  5
A
330
0
100
AcDbSymbolTable
 70
     6
  0
DIMSTYLE
105
27
102
{ACAD_REACTORS
330
C2
330
D0
102
}
330
A
100
AcDbSymbolTableRecord
100
AcDbDimStyleTableRecord
  2
STANDARD
 70
     0
  3

  4

  5

  6

  7

 40
1.0
 41
0.18
 42
0.0625
 43
0.38
 44
0.18
 45
0.0
 46
0.0
 47
0.0
 48
0.0
140
0.18
141
0.09
142
0.0
143
25.4
144
1.0
145
0.0
146
1.0
147
0.09
 71
     0
 72
     0
 73
     1
 74
     1
 75
     0
 76
     0
 77
     0
 78
     0
170
     0
171
     2
172
     0
173
     0
174
     0
175
     0
176
     0
177
     0
178
     0
270
     2
271
     2
272
     2
273
     2
274
     2
340
11
275
     0
280
     0
281
     0
282
     0
283
     1
284
     0
285
     0
286
     0
287
     3
288
     0
  0
DIMSTYLE
105
37
330
A
100
AcDbSymbolTableRecord
100
AcDbDimStyleTableRecord
  2
1
 70
     0
  3

  4

  5

  6

  7

 40
1.0
 41
1.125
 42
0.5
 43
0.375
 44
1.19921875
 45
0.0
 46
0.5
 47
0.0
 48
0.0
140
1.125
141
0.125
142
0.0
143
25.4
144
1.0
145
0.0
146
0.8
147
0.5625
 71
     0
 72
     0
 73
     0
 74
     0
 75
     0
 76
     0
 77
     1
 78
     3
170
     0
171
     2
172
     1
173
     0
174
     1
175
     0
176
   133
177
   133
178
   150
270
     2
271
     3
272
     3
273
     2
274
     2
340
36
275
     0
280
     0
281
     0
282
     0
283
     1
284
     0
285
     0
286
     0
287
     4
288
     0
  0
DIMSTYLE
105
38
330
A
100
AcDbSymbolTableRecord
100
AcDbDimStyleTableRecord
  2
1$2
 70
     0
  3

  4

  5
DOTSMALL
  6

  7

 40
1.0
 41
1.5
 42
0.5
 43
0.375
 44
1.19921875
 45
0.0
 46
0.5
 47
0.0
 48
0.0
140
0.75
141
0.125
142
0.0
143
25.4
144
1.0
145
0.0
146
0.8
147
0.5625
 71
     0
 72
     0
 73
     0
 74
     0
 75
     0
 76
     0
 77
     1
 78
     3
170
     0
171
     2
172
     1
173
     0
174
     1
175
     0
176
   133
177
   133
178
   150
270
     2
271
     3
272
     3
273
     2
274
     2
340
36
275
     0
280
     0
281
     0
282
     0
283
     1
284
     0
285
     0
286
     0
287
     4
288
     0
  0
DIMSTYLE
105
39
330
A
100
AcDbSymbolTableRecord
100
AcDbDimStyleTableRecord
  2
1$4
 70
     0
  3

  4

  5

  6

  7
DOTSMALL
 40
1.0
 41
1.5
 42
0.5
 43
0.375
 44
1.19921875
 45
0.0
 46
0.5
 47
0.0
 48
0.0
140
0.75
141
0.125
142
0.0
143
25.4
144
1.0
145
0.0
146
0.8
147
0.5625
 71
     0
 72
     0
 73
     0
 74
     0
 75
     0
 76
     0
 77
     1
 78
     3
170
     0
171
     2
172
     1
173
     1
174
     1
175
     0
176
   133
177
   133
178
   150
270
     2
271
     3
272
     3
273
     2
274
     2
340
36
275
     0
280
     0
281
     0
282
     0
283
     1
284
     0
285
     0
286
     0
287
     4
288
     0
  0
DIMSTYLE
105
3A
330
A
100
AcDbSymbolTableRecord
100
AcDbDimStyleTableRecord
  2
1$3
 70
     0
  3

  4

  5
DOTSMALL
  6

  7

 40
1.0
 41
1.5
 42
0.5
 43
0.375
 44
1.19921875
 45
0.0
 46
0.5
 47
0.0
 48
0.0
140
0.75
141
0.125
142
0.0
143
25.4
144
1.0
145
0.0
146
0.8
147
0.5625
 71
     0
 72
     0
 73
     0
 74
     0
 75
     0
 76
     0
 77
     1
 78
     3
170
     0
171
     2
172
     1
173
     0
174
     1
175
     0
176
   133
177
   133
178
   150
270
     2
271
     3
272
     3
273
     2
274
     2
340
36
275
     0
280
     0
281
     0
282
     0
283
     1
284
     0
285
     0
286
     0
287
     4
288
     0
  0
DIMSTYLE
105
3B
330
A
100
AcDbSymbolTableRecord
100
AcDbDimStyleTableRecord
  2
1$7
 70
     0
  3

  4

  5

  6

  7

 40
1.0
 41
1.0
 42
0.5
 43
0.375
 44
1.19921875
 45
0.0
 46
0.5
 47
0.0
 48
0.0
140
0.75
141
0.125
142
0.0
143
25.4
144
1.0
145
0.0
146
0.8
147
0.5625
 71
     0
 72
     0
 73
     0
 74
     0
 75
     0
 76
     0
 77
     1
 78
     3
170
     0
171
     2
172
     1
173
     0
174
     1
175
     0
176
   133
177
   133
178
   150
270
     2
271
     3
272
     3
273
     2
274
     2
340
36
275
     0
280
     0
281
     0
282
     0
283
     1
284
     0
285
     0
286
     0
287
     4
288
     0
  0
ENDTAB
  0
TABLE
  2
BLOCK_RECORD
  5
1
330
0
100
AcDbSymbolTable
 70
     5
  0
BLOCK_RECORD
  5
1F
102
{ACAD_XDICTIONARY
360
296
102
}
330
1
100
AcDbSymbolTableRecord
100
AcDbBlockTableRecord
  2
*MODEL_SPACE
  0
BLOCK_RECORD
  5
1B
102
{ACAD_XDICTIONARY
360
294
102
}
330
1
100
AcDbSymbolTableRecord
100
AcDbBlockTableRecord
  2
*PAPER_SPACE
  0
BLOCK_RECORD
  5
2B
330
1
100
AcDbSymbolTableRecord
100
AcDbBlockTableRecord
  2
_DOT
  0
BLOCK_RECORD
  5
30
330
1
100
AcDbSymbolTableRecord
100
AcDbBlockTableRecord
  2
_DOTSMALL
  0
BLOCK_RECORD
  5
C3
330
1
100
AcDbSymbolTableRecord
100
AcDbBlockTableRecord
  2
*D3
  0
BLOCK_RECORD
  5
D1
330
1
100
AcDbSymbolTableRecord
100
AcDbBlockTableRecord
  2
*D4
  0
ENDTAB
  0
ENDSEC
  0
SECTION
  2
BLOCKS
  0
BLOCK
  5
20
330
1F
100
AcDbEntity
  8
0
100
AcDbBlockBegin
  2
*MODEL_SPACE
 70
     0
 10
0.0
 20
0.0
 30
0.0
  3
*MODEL_SPACE
  1

  0
ENDBLK
  5
21
330
1F
100
AcDbEntity
  8
0
100
AcDbBlockEnd
  0
BLOCK
  5
1C
330
1B
100
AcDbEntity
 67
     1
  8
0
100
AcDbBlockBegin
  2
*PAPER_SPACE
 70
     0
 10
0.0
 20
0.0
 30
0.0
  3
*PAPER_SPACE
  1

  0
ENDBLK
  5
1D
330
1B
100
AcDbEntity
 67
     1
  8
0
100
AcDbBlockEnd
  0
BLOCK
  5
2E
330
2B
100
AcDbEntity
  8
0
100
AcDbBlockBegin
  2
_DOT
 70
     0
 10
0.0
 20
0.0
 30
0.0
  3
_DOT
  1

  0
LWPOLYLINE
  5
2C
330
2B
100
AcDbEntity
  8
L
 62
     0
100
AcDbPolyline
 90
        2
 70
     1
 43
0.5
 10
-0.25
 20
0.0
 42
1.0
 10
0.25
 20
0.0
 42
1.0
  0
LINE
  5
2D
330
2B
100
AcDbEntity
  8
L
 62
     0
100
AcDbLine
 10
-0.5
 20
0.0
 30
0.0
 11
-1.0
 21
0.0
 31
0.0
  0
ENDBLK
  5
2F
330
2B
100
AcDbEntity
  8
0
100
AcDbBlockEnd
  0
BLOCK
  5
32
330
30
100
AcDbEntity
  8
0
 48
0.116666
100
AcDbBlockBegin
  2
_DOTSMALL
 70
     0
 10
0.0
 20
0.0
 30
0.0
  3
_DOTSMALL
  1

  0
LWPOLYLINE
  5
31
330
30
100
AcDbEntity
  8
0
  6
BYBLOCK
 62
     0
100
AcDbPolyline
 90
        2
 70
     1
 43
0.5
 10
-0.0625
 20
0.0
 42
1.0
 10
0.0625
 20
0.0
 42
1.0
  0
ENDBLK
  5
33
330
30
100
AcDbEntity
  8
0
 48
0.116666
100
AcDbBlockEnd
  0
BLOCK
  5
CE
330
C3
100
AcDbEntity
  8
0
100
AcDbBlockBegin
  2
*D3
 70
     1
 10
0.0
 20
0.0
 30
0.0
  3
*D3
  1

  0
LINE
  5
C4
330
C3
100
AcDbEntity
  8
0
 62
     0
100
AcDbLine
 10
2.804548050007902
 20
6.543782147568869
 30
0.0
 11
2.804548050007902
 21
7.115475008431165
 31
0.0
  0
LINE
  5
C5
330
C3
100
AcDbEntity
  8
0
 62
     0
100
AcDbLine
 10
9.854548050007629
 20
6.543782147568869
 30
0.0
 11
9.854548050007629
 21
7.115475008431165
 31
0.0
  0
LINE
  5
C6
330
C3
100
AcDbEntity
  8
0
 62
     0
100
AcDbLine
 10
2.984548050007902
 20
6.935475008431165
 30
0.0
 11
5.984548050007766
 21
6.935475008431165
 31
0.0
  0
LINE
  5
C7
330
C3
100
AcDbEntity
  8
0
 62
     0
100
AcDbLine
 10
9.674548050007629
 20
6.935475008431165
 30
0.0
 11
6.674548050007765
 21
6.935475008431165
 31
0.0
  0
SOLID
  5
C8
330
C3
100
AcDbEntity
  8
0
 62
     0
100
AcDbTrace
 10
2.984548050007902
 20
6.965475008431165
 30
0.0
 11
2.984548050007902
 21
6.905475008431165
 31
0.0
 12
2.804548050007902
 22
6.935475008431165
 32
0.0
 13
2.804548050007902
 23
6.935475008431165
 33
0.0
  0
SOLID
  5
C9
330
C3
100
AcDbEntity
  8
0
 62
     0
100
AcDbTrace
 10
9.674548050007629
 20
6.965475008431165
 30
0.0
 11
9.674548050007629
 21
6.905475008431165
 31
0.0
 12
9.854548050007629
 22
6.935475008431165
 32
0.0
 13
9.854548050007629
 23
6.935475008431165
 33
0.0
  0
MTEXT
  5
CA
330
C3
100
AcDbEntity
  8
0
 62
     0
100
AcDbMText
 10
6.329548050007765
 20
6.935475008431165
 30
0.0
 40
0.18
 41
0.0
 71
     5
 72
     1
  1
\A1;7.05
1001
ACAD
1000
MTEXTBEGIN
1070
    73
1070
     1
1070
    44
1040
1.0
1070
    74
1070
     0
1000
MTEXTEND
  0
POINT
  5
CB
330
C3
100
AcDbEntity
  8
DEFPOINTS
 62
     0
100
AcDbPoint
 10
2.804548050007902
 20
6.481282147568869
 30
0.0
  0
POINT
  5
CC
330
C3
100
AcDbEntity
  8
DEFPOINTS
 62
     0
100
AcDbPoint
 10
9.854548050007629
 20
6.481282147568869
 30
0.0
  0
POINT
  5
CD
330
C3
100
AcDbEntity
  8
DEFPOINTS
 62
     0
100
AcDbPoint
 10
9.854548050007629
 20
6.935475008431165
 30
0.0
  0
ENDBLK
  5
CF
330
C3
100
AcDbEntity
  8
0
100
AcDbBlockEnd
  0
BLOCK
  5
DC
330
D1
100
AcDbEntity
  8
0
100
AcDbBlockBegin
  2
*D4
 70
     1
 10
0.0
 20
0.0
 30
0.0
  3
*D4
  1

  0
LINE
  5
D2
330
D1
100
AcDbEntity
  8
0
 62
     0
100
AcDbLine
 10
2.752048050007665
 20
6.49128214756886
 30
0.0
 11
2.106616310371016
 21
6.49128214756886
 31
0.0
  0
LINE
  5
D3
330
D1
100
AcDbEntity
  8
0
 62
     0
100
AcDbLine
 10
2.872048050007556
 20
5.176282147568805
 30
0.0
 11
2.106616310371016
 21
5.176282147568805
 31
0.0
  0
LINE
  5
D4
330
D1
100
AcDbEntity
  8
0
 62
     0
100
AcDbLine
 10
2.286616310371016
 20
6.31128214756886
 30
0.0
 11
2.286616310371016
 21
6.013782147568832
 31
0.0
  0
LINE
  5
D5
330
D1
100
AcDbEntity
  8
0
 62
     0
100
AcDbLine
 10
2.286616310371016
 20
5.356282147568805
 30
0.0
 11
2.286616310371016
 21
5.653782147568833
 31
0.0
  0
SOLID
  5
D6
330
D1
100
AcDbEntity
  8
0
 62
     0
100
AcDbTrace
 10
2.256616310371016
 20
6.31128214756886
 30
0.0
 11
2.316616310371016
 21
6.31128214756886
 31
0.0
 12
2.286616310371016
 22
6.49128214756886
 32
0.0
 13
2.286616310371016
 23
6.49128214756886
 33
0.0
  0
SOLID
  5
D7
330
D1
100
AcDbEntity
  8
0
 62
     0
100
AcDbTrace
 10
2.256616310371016
 20
5.356282147568805
 30
0.0
 11
2.316616310371016
 21
5.356282147568805
 31
0.0
 12
2.286616310371016
 22
5.176282147568805
 32
0.0
 13
2.286616310371016
 23
5.176282147568805
 33
0.0
  0
MTEXT
  5
D8
330
D1
100
AcDbEntity
  8
0
 62
     0
100
AcDbMText
 10
2.286616310371015
 20
5.833782147568833
 30
0.0
 40
0.18
 41
0.0
 71
     5
 72
     1
  1
\A1;1.32
1001
ACAD
1000
MTEXTBEGIN
1070
    73
1070
     1
1070
    44
1040
1.0
1070
    74
1070
     0
1000
MTEXTEND
  0
POINT
  5
D9
330
D1
100
AcDbEntity
  8
DEFPOINTS
 62
     0
100
AcDbPoint
 10
2.814548050007665
 20
6.49128214756886
 30
0.0
  0
POINT
  5
DA
330
D1
100
AcDbEntity
  8
DEFPOINTS
 62
     0
100
AcDbPoint
 10
2.934548050007556
 20
5.176282147568805
 30
0.0
  0
POINT
  5
DB
330
D1
100
AcDbEntity
  8
DEFPOINTS
 62
     0
100
AcDbPoint
 10
2.286616310371016
 20
5.176282147568805
 30
0.0
  0
ENDBLK
  5
DD
330
D1
100
AcDbEntity
  8
0
100
AcDbBlockEnd
  0
ENDSEC
  0
SECTION
  2
ENTITIES
  0
LWPOLYLINE
  5
BE
330
1F
100
AcDbEntity
  8
L
  6
CONTINUOUS
 62
     5
 48
0.116666
100
AcDbPolyline
 90
        2
 70
     0
 43
0.028125
 10
4.21882383254087
 20
4.184946028587525
 10
8.337368013575265
 20
4.184946028587525
  0
TEXT
  5
BF
330
1F
100
AcDbEntity
  8
L
  6
CENTER2
 62
     3
 48
0.116666
100
AcDbText
 10
4.312559675221969
 20
4.27868187126851
 30
0.0
 40
0.140625
  1
SERIES 7 - 7" BLEED BODY #1570
  7
REG
100
AcDbText
  0
TEXT
  5
C0
330
1F
100
AcDbEntity
  8
TX
  6
CENTER2
 48
0.116666
100
AcDbText
 10
4.312559675221969
 20
3.99746018590654
 30
0.0
 40
0.09375
  1
SCALE : FULL SIZE
  7
REG
 11
4.312559675221969
 21
4.09121018590654
 31
0.0
100
AcDbText
 73
     3
  0
DIMENSION
  5
C2
330
1F
100
AcDbEntity
  8
0
100
AcDbDimension
  2
*D3
 10
9.854548050007629
 20
6.935475008431165
 30
0.0
 11
6.329548050007765
 21
6.935475008431165
 31
0.0
 70
    32
  3
STANDARD
100
AcDbAlignedDimension
 13
2.804548050007902
 23
6.481282147568869
 33
0.0
 14
9.854548050007629
 24
6.481282147568869
 34
0.0
100
AcDbRotatedDimension
  0
DIMENSION
  5
D0
330
1F
100
AcDbEntity
  8
0
100
AcDbDimension
  2
*D4
 10
2.286616310371016
 20
5.176282147568805
 30
0.0
 11
2.286616310371015
 21
5.833782147568833
 31
0.0
 70
    32
  3
STANDARD
100
AcDbAlignedDimension
 13
2.814548050007665
 23
6.49128214756886
 33
0.0
 14
2.934548050007556
 24
5.176282147568805
 34
0.0
 50
90.0
100
AcDbRotatedDimension
  0
LWPOLYLINE
  5
230
330
1F
100
AcDbEntity
  8
L
 62
     5
100
AcDbPolyline
 90
       66
 70
     1
 43
0.0
 10
9.724548050007747
 20
5.176282147568805
 42
0.4142135623730951
 10
9.734548050007738
 20
5.186282147568796
 10
9.734548050007738
 20
6.356282147568869
 42
-0.4142135623730951
 10
9.744548050007729
 20
6.36628214756886
 10
9.844548050007638
 20
6.36628214756886
 42
0.4142135623797547
 10
9.854548050007629
 20
6.376282147568851
 10
9.854548050007629
 20
6.481282147568869
 42
0.4142135623730951
 10
9.844548050007638
 20
6.49128214756886
 10
6.329548050007538
 20
6.49128214756886
 10
2.814548050007665
 20
6.49128214756886
 42
0.4142135623664355
 10
2.804548050007674
 20
6.481282147568869
 10
2.804548050007674
 20
6.376282147568851
 42
0.4142135623730951
 10
2.814548050007665
 20
6.36628214756886
 10
2.914548050007574
 20
6.36628214756886
 42
-0.4142135623664355
 10
2.924548050007565
 20
6.356282147568869
 10
2.924548050007793
 20
5.186282147568796
 42
0.4142135623664355
 10
2.934548050007556
 20
5.176282147568805
 10
3.664548050007574
 20
5.176282147568805
 42
0.4142135623664355
 10
3.674548050007565
 20
5.186282147568796
 10
3.674548050007565
 20
5.266282147568837
 42
0.4142135623730951
 10
3.664548050007574
 20
5.276282147568828
 10
3.279203300613694
 20
5.276282147568796
 42
-0.3582490687425544
 10
3.218375675310691
 20
5.3262821475688
 42
0.3582490687428654
 10
3.15754805000774
 20
5.376282147568851
 10
3.154548050007583
 20
5.376282147568851
 10
3.154548050007583
 20
5.286282147568819
 42
-0.4142135623730951
 10
3.144548050007593
 20
5.276282147568828
 10
3.034548050007693
 20
5.276282147568828
 42
-0.4142135623730951
 10
3.024548050007702
 20
5.286282147568819
 10
3.024548050007474
 20
6.391282147568837
 42
-0.4142135623797547
 10
3.034548050007693
 20
6.401282147568828
 10
3.144548050007593
 20
6.401282147568828
 42
-0.4142135623664355
 10
3.154548050007583
 20
6.391282147568837
 10
3.154548050007583
 20
6.301282147568805
 10
3.15754805000774
 20
6.301282147568853
 42
0.3582490687428594
 10
3.21837567531057
 20
6.35128214756888
 42
-0.3582490687428707
 10
3.279203300613467
 20
6.401282147568828
 10
4.708423131282138
 20
6.401282147568828
 10
4.900672968733211
 20
6.401282147568828
 10
6.308334846572002
 20
6.401282147568819
 42
0.1989123673796515
 10
6.318941448289884
 20
6.405675545851046
 10
6.329548050007538
 20
6.416282147568814
 10
6.340154651725427
 20
6.405675545851053
 42
0.198912367379664
 10
6.350761253443302
 20
6.401282147568828
 10
7.758423131282093
 20
6.401282147568828
 10
7.940672968733174
 20
6.401282147568828
 10
9.379892799401609
 20
6.401282147568861
 42
-0.3582490687433981
 10
9.440720424704611
 20
6.351282147568856
 42
0.3582490687428646
 10
9.501548050007563
 20
6.301282147568805
 10
9.50454805000772
 20
6.301282147568805
 10
9.50454805000772
 20
6.391282147568837
 42
-0.4142135623730951
 10
9.514548050007711
 20
6.401282147568828
 10
9.624548050007611
 20
6.401282147568828
 42
-0.4142135623730951
 10
9.634548050007602
 20
6.391282147568837
 10
9.634548050007602
 20
5.286282147568819
 42
-0.4142135623730951
 10
9.624548050007611
 20
5.276282147568828
 10
9.514548050007711
 20
5.276282147568828
 42
-0.4142135623797547
 10
9.50454805000772
 20
5.286282147568819
 10
9.50454805000772
 20
5.376282147568851
 10
9.501548050007563
 20
5.3762821475688
 42
0.3582490687428713
 10
9.440720424704846
 20
5.326282147568753
 42
-0.3582490687433941
 10
9.379892799401609
 20
5.276282147568828
 10
8.994548050007729
 20
5.276282147568828
 42
0.4142135623797546
 10
8.984548050007738
 20
5.266282147568837
 10
8.984548050007738
 20
5.186282147568796
 42
0.4142135623730951
 10
8.994548050007729
 20
5.176282147568805
  0
ENDSEC
  0
SECTION
  2
OBJECTS
  0
DICTIONARY
  5
C
330
0
100
AcDbDictionary
  3
ACAD_GROUP
350
D
  3
ACAD_LAYOUT
350
1A
  3
ACAD_MLINESTYLE
350
17
  3
ACAD_PLOTSETTINGS
350
19
  3
ACAD_PLOTSTYLENAME
350
E
  3
ACDBHEADERROUNDTRIPXREC
350
274
  0
DICTIONARY
  5
296
330
1F
100
AcDbDictionary
280
     1
  3
ACAD_LAYOUTSELFREF
360
297
  0
DICTIONARY
  5
294
330
1B
100
AcDbDictionary
280
     1
  3
ACAD_LAYOUTSELFREF
360
295
  0
DICTIONARY
  5
D
102
{ACAD_REACTORS
330
C
102
}
330
C
100
AcDbDictionary
  0
DICTIONARY
  5
1A
102
{ACAD_REACTORS
330
C
102
}
330
C
100
AcDbDictionary
  0
DICTIONARY
  5
17
102
{ACAD_REACTORS
330
C
102
}
330
C
100
AcDbDictionary
  3
STANDARD
350
18
  0
DICTIONARY
  5
19
102
{ACAD_REACTORS
330
C
102
}
330
C
100
AcDbDictionary
  0
ACDBDICTIONARYWDFLT
  5
E
102
{ACAD_REACTORS
330
C
102
}
330
C
100
AcDbDictionary
281
     1
  3
Normal
350
F
100
AcDbDictionaryWithDefault
340
F
  0
DICTIONARY
  5
274
102
{ACAD_REACTORS
330
C
102
}
330
C
100
AcDbDictionary
  3
CEPSNTYPE
350
27E
  3
FINGERPRINTGUID
350
27F
  3
HYPERLINKBASE
350
277
  3
INSUNITS
350
27D
  3
LAYOUTDICT
350
279
  3
LWETCUNION
350
27C
  3
PLOTSETDICT
350
27A
  3
PLOTSTYLNAMDICT
350
27B
  3
PSVPSCALE
350
281
  3
PUCSBASE
350
284
  3
PUCSORGBACK
350
28A
  3
PUCSORGBOTTOM
350
286
  3
PUCSORGFRONT
350
289
  3
PUCSORGLEFT
350
287
  3
PUCSORGRIGHT
350
288
  3
PUCSORGTOP
350
285
  3
PUCSORTHOREF
350
282
  3
PUCSORTHOVIEW
350
283
  3
STYLESHEET
350
278
  3
TSTACKALIGN
350
275
  3
TSTACKSIZE
350
276
  3
UCSBASE
350
28D
  3
UCSORGBACK
350
293
  3
UCSORGBOTTOM
350
28F
  3
UCSORGFRONT
350
292
  3
UCSORGLEFT
350
290
  3
UCSORGRIGHT
350
291
  3
UCSORGTOP
350
28E
  3
UCSORTHOREF
350
28B
  3
UCSORTHOVIEW
350
28C
  3
VERSIONGUID
350
280
  0
XRECORD
  5
297
102
{ACAD_REACTORS
330
296
102
}
330
296
100
AcDbXrecord
340
1F
  0
XRECORD
  5
295
102
{ACAD_REACTORS
330
294
102
}
330
294
100
AcDbXrecord
340
1B
  0
MLINESTYLE
  5
18
102
{ACAD_REACTORS
330
17
102
}
330
17
100
AcDbMlineStyle
  2
STANDARD
 70
     0
  3

 62
   256
 51
90.0
 52
90.0
 71
     2
 49
0.5
 62
   256
  6
BYLAYER
 49
-0.5
 62
   256
  6
BYLAYER
  0
ACDBPLACEHOLDER
  5
F
102
{ACAD_REACTORS
330
E
102
}
330
E
100
AcDbPlaceHolder
280
     0
  0
XRECORD
  5
27E
102
{ACAD_REACTORS
330
274
102
}
330
274
100
AcDbXrecord
 90
        0
  0
XRECORD
  5
27F
102
{ACAD_REACTORS
330
274
102
}
330
274
100
AcDbXrecord
  1
{DC175E3D-AE85-11D5-9A93-0040C77E826B}
  0
XRECORD
  5
277
102
{ACAD_REACTORS
330
274
102
}
330
274
100
AcDbXrecord
  1

  0
XRECORD
  5
27D
102
{ACAD_REACTORS
330
274
102
}
330
274
100
AcDbXrecord
 90
        1
  0
XRECORD
  5
279
102
{ACAD_REACTORS
330
274
102
}
330
274
100
AcDbXrecord
340
1A
  0
XRECORD
  5
27C
102
{ACAD_REACTORS
330
274
102
}
330
274
100
AcDbXrecord
 90
    10781
  0
XRECORD
  5
27A
102
{ACAD_REACTORS
330
274
102
}
330
274
100
AcDbXrecord
340
19
  0
XRECORD
  5
27B
102
{ACAD_REACTORS
330
274
102
}
330
274
100
AcDbXrecord
340
E
  0
XRECORD
  5
281
102
{ACAD_REACTORS
330
274
102
}
330
274
100
AcDbXrecord
 40
0.0
  0
XRECORD
  5
284
102
{ACAD_REACTORS
330
274
102
}
330
274
100
AcDbXrecord
340
0
  0
XRECORD
  5
28A
102
{ACAD_REACTORS
330
274
102
}
330
274
100
AcDbXrecord
 10
0.0
 20
0.0
 30
0.0
  0
XRECORD
  5
286
102
{ACAD_REACTORS
330
274
102
}
330
274
100
AcDbXrecord
 10
0.0
 20
0.0
 30
0.0
  0
XRECORD
  5
289
102
{ACAD_REACTORS
330
274
102
}
330
274
100
AcDbXrecord
 10
0.0
 20
0.0
 30
0.0
  0
XRECORD
  5
287
102
{ACAD_REACTORS
330
274
102
}
330
274
100
AcDbXrecord
 10
0.0
 20
0.0
 30
0.0
  0
XRECORD
  5
288
102
{ACAD_REACTORS
330
274
102
}
330
274
100
AcDbXrecord
 10
0.0
 20
0.0
 30
0.0
  0
XRECORD
  5
285
102
{ACAD_REACTORS
330
274
102
}
330
274
100
AcDbXrecord
 10
0.0
 20
0.0
 30
0.0
  0
XRECORD
  5
282
102
{ACAD_REACTORS
330
274
102
}
330
274
100
AcDbXrecord
340
0
  0
XRECORD
  5
283
102
{ACAD_REACTORS
330
274
102
}
330
274
100
AcDbXrecord
 70
     0
  0
XRECORD
  5
278
102
{ACAD_REACTORS
330
274
102
}
330
274
100
AcDbXrecord
  1

  0
XRECORD
  5
275
102
{ACAD_REACTORS
330
274
102
}
330
274
100
AcDbXrecord
 90
        1
  0
XRECORD
  5
276
102
{ACAD_REACTORS
330
274
102
}
330
274
100
AcDbXrecord
 90
       70
  0
XRECORD
  5
28D
102
{ACAD_REACTORS
330
274
102
}
330
274
100
AcDbXrecord
340
0
  0
XRECORD
  5
293
102
{ACAD_REACTORS
330
274
102
}
330
274
100
AcDbXrecord
 10
0.0
 20
0.0
 30
0.0
  0
XRECORD
  5
28F
102
{ACAD_REACTORS
330
274
102
}
330
274
100
AcDbXrecord
 10
0.0
 20
0.0
 30
0.0
  0
XRECORD
  5
292
102
{ACAD_REACTORS
330
274
102
}
330
274
100
AcDbXrecord
 10
0.0
 20
0.0
 30
0.0
  0
XRECORD
  5
290
102
{ACAD_REACTORS
330
274
102
}
330
274
100
AcDbXrecord
 10
0.0
 20
0.0
 30
0.0
  0
XRECORD
  5
291
102
{ACAD_REACTORS
330
274
102
}
330
274
100
AcDbXrecord
 10
0.0
 20
0.0
 30
0.0
  0
XRECORD
  5
28E
102
{ACAD_REACTORS
330
274
102
}
330
274
100
AcDbXrecord
 10
0.0
 20
0.0
 30
0.0
  0
XRECORD
  5
28B
102
{ACAD_REACTORS
330
274
102
}
330
274
100
AcDbXrecord
340
0
  0
XRECORD
  5
28C
102
{ACAD_REACTORS
330
274
102
}
330
274
100
AcDbXrecord
 70
     0
  0
XRECORD
  5
280
102
{ACAD_REACTORS
330
274
102
}
330
274
100
AcDbXrecord
  1
{A46C202A-318A-467C-9521-404FFED15943}
  0
ENDSEC
  0
EOF
